<?xml version="1.0" standalone="no"?>
<!DOCTYPE svg PUBLIC "-//W3C//DTD SVG 1.1//EN" "http://www.w3.org/Graphics/SVG/1.1/DTD/svg11.dtd" >
<svg xmlns="http://www.w3.org/2000/svg">
<metadata>Generated by IcoMoon</metadata>
<defs>
<font id="yith-icon" horiz-adv-x="1024">
<font-face units-per-em="1024" ascent="960" descent="-64" />
<missing-glyph horiz-adv-x="1024" />
<glyph unicode="&#x20;" horiz-adv-x="512" d="" />
<glyph unicode="&#xe900;" glyph-name="arrow_down" d="M85.333 618.667l426.684-426.65 426.65 426.65-85.35 85.316-341.299-341.299-341.367 341.299z" />
<glyph unicode="&#xe901;" glyph-name="arrow_left" d="M767.966 106.684l-341.316 341.367 341.316 341.265-85.35 85.35-426.581-426.615 426.581-426.718z" />
<glyph unicode="&#xe902;" glyph-name="arrow_right" d="M341.385 21.333l426.581 426.718-426.581 426.615-85.35-85.35 341.316-341.265-341.316-341.367z" />
<glyph unicode="&#xe903;" glyph-name="arrow_up" d="M938.667 277.333l-426.684 426.65-426.65-426.65 85.316-85.316 341.333 341.299 341.333-341.299z" />
<glyph unicode="&#xe904;" glyph-name="calendar" d="M263.1 341.385h71.083v-71.083h-71.083v71.083zM369.766 341.385h71.083v-71.083h-71.083v71.083zM476.416 341.385h71.083v-71.083h-71.083v71.083zM583.083 341.385h71.083v-71.083h-71.083v71.083zM369.766 448.034h71.083v-71.083h-71.083v71.083zM476.416 448.034h71.083v-71.083h-71.083v71.083zM583.083 448.034h71.083v-71.083h-71.083v71.083zM263.1 234.718h71.083v-71.083h-71.083v71.083zM369.766 234.718h71.083v-71.083h-71.083v71.083zM476.416 234.718h71.083v-71.083h-71.083v71.083zM583.083 234.718h71.083v-71.083h-71.083v71.083zM689.818 341.385h71.083v-71.083h-71.083v71.083zM689.818 448.034h71.083v-71.083h-71.083v71.083zM903.134 803.584h-142.234v71.083h-71.083v-71.083h-355.55v71.083h-71.083v-71.083h-142.319v-782.251h782.251v782.251zM263.1 732.501v-71.083h71.083v71.083h355.55v-71.083h71.083v71.083h71.083v-142.234h-640.017v142.234h71.219zM191.949 92.484v426.701h640.017v-426.701h-640.017z" />
<glyph unicode="&#xe905;" glyph-name="check" d="M938.667 734.191l-56.371 56.371-566.391-566.391-168.875 207.258-61.696-50.295 224.58-275.695z" />
<glyph unicode="&#xe906;" glyph-name="close" d="M158.857 21.333l353.143 353.143 353.143-353.143 73.523 73.523-353.143 353.143 353.143 353.143-73.523 73.523-353.143-353.143-353.143 353.143-73.523-73.523 353.143-353.143-353.143-353.143z" />
<glyph unicode="&#xe907;" glyph-name="edit" d="M868.847 357.239l-517.427 517.427-193.178-193.178 517.427-517.427h193.178v193.178zM705.178 235.435l92.297 92.297v-92.297h-92.297zM654.729 285.884l-306.398 306.398 92.297 92.297 306.398-306.398-92.297-92.297zM351.42 773.786l38.775-38.775-92.297-92.297-38.775 38.775 92.297 92.297zM155.153 92.706h713.677v-71.373h-713.677v71.373z" />
<glyph unicode="&#xe908;" glyph-name="magnifier" d="M694.528 570.095c0 167.953-136.619 304.572-304.572 304.572s-304.589-136.619-304.589-304.572 136.619-304.572 304.572-304.572c70.229 0 134.895 24.115 186.419 64.239l26.18-26.18-38.076-38.076 244.19-244.173 129.963 129.963-244.173 244.19-38.076-38.076-26.18 26.18c40.124 51.695 64.341 116.258 64.341 186.505zM830.976 151.296l-22.323-22.323-136.533 136.533 22.323 22.323 136.533-136.533zM389.956 341.658c-125.952 0-228.437 102.485-228.437 228.437s102.485 228.42 228.437 228.42 228.437-102.485 228.437-228.437c-0.017-125.935-102.502-228.42-228.437-228.42z" />
<glyph unicode="&#xe909;" glyph-name="pencil" d="M669.542 874.701l-584.209-584.192 2.628-266.581 266.496-2.628 584.209 584.192-269.124 269.21zM831.010 605.577l-25.515-25.515-161.485 161.553 25.532 25.532 161.468-161.57zM323.277 97.758l-159.915 1.553-1.553 160 428.39 428.476 53.828-53.914-412.894-412.791 53.828-53.828 412.877 412.809 53.828-53.828-428.39-428.476z" />
<glyph unicode="&#xe90a;" glyph-name="plus" d="M475.409 21.333h78.029v385.229h385.229v78.029h-385.229v390.076h-78.029v-390.076h-390.076v-78.029h390.076z" />
<glyph unicode="&#xe90b;" glyph-name="update" d="M188.075 400.162c23.313-158.703 159.932-281.139 325.035-281.139 118.903 0 228.949 64.495 287.13 168.38l-63.761 35.703c-45.295-80.828-130.884-131.055-223.369-131.055-120.798 0-222.14 84.275-248.73 197.018l40.209-40.124 51.695 51.695-135.475 135.475-135.475-135.458 51.695-51.695 51.046 51.2zM513.109 703.863c121.941 0 224.017-85.828 249.549-200.141l-43.247 43.247-51.695-51.695 135.475-135.475 135.475 135.475-51.695 51.695-49.152-49.152c-24.132 157.713-160.341 279.159-324.71 279.159-117.009 0-226.236-62.942-284.911-164.369l63.266-36.591c45.705 78.78 130.56 127.846 221.645 127.846z" />
<glyph unicode="&#xe90c;" glyph-name="upload" d="M937.728 139.315v619.247c0 64-52.105 116.105-116.105 116.105h-619.247c-64 0-116.105-52.105-116.105-116.105v-619.247c0-64 52.105-116.105 116.105-116.105h190.276v77.38h-190.276c-21.333 0-38.724 17.306-38.724 38.724v619.247c0 21.333 17.306 38.724 38.724 38.724h619.247c21.333 0 38.724-17.306 38.724-38.724v-619.247c0-21.333-17.391-38.724-38.724-38.724h-193.485v-77.38h193.485c64 0.017 116.105 52.105 116.105 116.105zM550.69 21.333v412.553l88.61-89.515 54.972 54.391-180.429 182.323-183.876-181.982 54.409-55.057 88.934 87.945v-410.658z" />
<glyph unicode="&#xe90d;" glyph-name="trash" d="M734.591 132.655c0-20.48-16.696-37.101-37.101-37.101h-371.014c-20.406 0-37.101 16.621-37.101 37.101v519.42h-74.203v-519.42c0-61.403 50.087-111.304 111.304-111.304h371.014c61.217 0 111.304 49.901 111.304 111.304v519.42h-74.203v-519.42zM400.679 800.48h222.608v-37.101h-222.608v37.101zM697.49 800.48c0 40.923-33.391 74.203-74.203 74.203h-222.608c-40.812 0-74.203-33.28-74.203-74.203v-37.101h-185.507v-74.203h742.028v74.203h-185.507v37.101zM474.882 614.973h74.203v-445.217h-74.203v445.217zM363.577 614.973h74.203v-445.217h-74.203v445.217zM586.186 614.973h74.203v-445.217h-74.203v445.217z" />
<glyph unicode="&#xe90e;" glyph-name="info" d="M511.957 92.471c-196.017 0-355.555 159.466-355.555 355.555 0 196.053 159.538 355.555 355.555 355.555 196.053 0 355.555-159.502 355.555-355.555 0-196.089-159.502-355.555-355.555-355.555zM511.957 874.692c-235.271 0-426.666-191.431-426.666-426.666 0-235.271 191.395-426.666 426.666-426.666 235.306 0 426.666 191.395 426.666 426.666 0 235.235-191.36 426.666-426.666 426.666zM476.402 270.248v177.777h35.555v-177.777h-35.555zM583.068 448.026v71.111h-213.333v-71.111h35.555v-248.888h213.333v71.111h-35.555v177.777zM494.179 661.359c9.813 0 17.778-8 17.778-17.778 0-9.813-7.964-17.778-17.778-17.778-9.778 0-17.778 7.964-17.778 17.778 0 9.778 8 17.778 17.778 17.778zM494.179 554.692c49.031 0 88.889 39.858 88.889 88.889 0 48.995-39.858 88.889-88.889 88.889-48.995 0-88.889-39.893-88.889-88.889 0-49.031 39.893-88.889 88.889-88.889z" />
<glyph unicode="&#xe90f;" glyph-name="drag" d="M241.835 409.259h232.277v-232.277h-116.053l156.501-154.795 156.501 154.795h-119.467v232.277h233.813v-116.224l154.965 156.672-154.965 156.501v-119.467h-233.813v232.277h119.467l-156.501 154.795-156.501-154.795h116.053v-232.277h-232.277v119.467l-154.795-156.501 154.795-156.672z" />
<glyph unicode="&#xe910;" glyph-name="reset" d="M188.928 400.384c23.211-158.379 159.573-280.405 324.267-280.405 118.613 0 228.352 64.341 286.379 167.936l-63.488 35.499c-45.227-80.555-130.56-130.731-222.891-130.731-120.491 0-221.525 84.139-248.149 196.608l40.107-40.107 51.541 51.541-135.168 135.168-135.168-135.168 51.541-51.541 51.029 51.2zM513.195 703.317c121.685 0 223.573-85.675 249.003-199.68l-43.179 43.179-51.541-51.541 135.168-135.168 135.168 135.168-51.541 51.541-48.981-48.981c-24.064 157.355-159.915 278.528-323.925 278.528-116.736 0-225.621-62.805-284.16-164.011l63.147-36.523c45.227 78.507 129.877 127.488 220.843 127.488z" />
<glyph unicode="&#xe911;" glyph-name="arrow_eye" d="M512 184.32c147.797 0 288.939 82.603 408.235 238.933l17.408 22.869-17.408 22.869c-119.296 156.501-260.437 239.104-408.235 239.104s-289.109-82.603-408.235-239.104l-17.408-22.869 17.408-22.869c119.125-156.331 260.437-238.933 408.235-238.933zM512 632.661c116.395 0 230.059-64.341 330.411-186.539-100.352-122.027-214.187-186.368-330.411-186.368-116.395 0-230.059 64.341-330.411 186.539 100.181 122.027 214.016 186.368 330.411 186.368zM510.293 293.717c83.115 0 150.699 67.584 150.699 150.699s-67.584 150.699-150.699 150.699c-83.115 0-150.699-67.584-150.699-150.699s67.584-150.699 150.699-150.699zM510.293 519.68c41.472 0 75.264-33.792 75.264-75.264s-33.792-75.264-75.264-75.264c-41.472 0-75.264 33.792-75.264 75.264-0.171 41.472 33.621 75.264 75.264 75.264z" />
<glyph unicode="&#xe912;" glyph-name="arrow_eye_closed" d="M920.235 468.992c-119.296 156.501-260.437 239.104-408.235 239.104-57.296 0-113.616-12.423-168.047-36.743l70.881-53.755c32.024 9.991 64.493 15.065 97.166 15.065 116.395 0 230.059-64.341 330.411-186.54-27.682-33.661-56.393-62.906-85.893-87.648l61.426-46.583c35.519 31.508 69.722 68.681 102.292 111.363l17.408 22.868-17.41 22.869zM510.293 595.115c-18.676 0-36.564-3.422-53.081-9.656l203.208-154.107c0.37 4.306 0.572 8.661 0.572 13.063 0 83.116-67.584 150.7-150.699 150.7zM873.18 226.28l-713.387 541.013c-21.289 16.145-51.633 11.974-67.779-9.315s-11.976-51.633 9.315-67.779l123.489-93.652c-42.291-34.717-82.818-77.322-121.054-127.556l-17.408-22.869 17.408-22.869c119.125-156.332 260.437-238.933 408.235-238.933 65.911 0 130.495 16.445 192.411 48.517l110.302-83.651c8.743-6.63 19.011-9.834 29.196-9.834 14.619 0 29.068 6.6 38.583 19.147 16.147 21.291 11.977 51.635-9.312 67.78zM523.187 370.273c-4.192-0.73-8.497-1.121-12.894-1.121-38.915 0-71.067 29.756-74.882 67.688l87.776-66.567zM512 259.755c-116.395 0-230.059 64.34-330.411 186.539 33.684 41.028 68.92 75.481 105.271 103.204l79.536-60.319c-4.41-14.148-6.799-29.181-6.799-44.764 0-83.113 67.584-150.699 150.699-150.699 30.172 0 58.289 8.917 81.877 24.241l44.037-33.396c-40.75-16.406-82.321-24.806-124.209-24.806z" />
<glyph unicode="&#xe913;" glyph-name="calendar_add" d="M547.499 483.499h-70.997v-106.496h-106.325v-70.827h106.325v-106.496h70.997v106.496h106.325v70.827h-106.325zM902.315 802.816h-141.824v70.827h-70.997v-70.997h-354.816v70.997h-70.997v-70.997h-141.995v-780.459h780.459v780.629zM263.68 731.819v-70.997h70.997v70.997h354.816v-70.997h70.997v70.997h70.997v-106.496h-638.805v106.496h70.997zM192.683 93.184v461.312h638.635v-461.141h-638.635z" />
<glyph unicode="&#xe914;" glyph-name="calendar_money" d="M474.965 133.291h74.069v37.035c40.96 0 74.069 33.109 74.069 74.069v37.035c0 40.96-33.109 74.069-74.069 74.069h-74.069v37.035h148.139v74.069h-74.069v37.035h-74.069v-37.035c-40.96 0-74.069-33.109-74.069-74.069v-37.035c0-40.96 33.109-74.069 74.069-74.069h74.069v-37.035h-148.139v-74.069h74.069v-37.035zM252.928 873.643v-222.037h73.899v74.069h333.312v74.069h-333.312v73.899zM919.211 540.501v259.243h-148.139v73.899h-74.069v-222.037h74.069v74.069h74.069v-111.104h-666.283v111.104h37.035v74.069h-111.104v-777.387h814.421v518.144zM845.141 96.256h-666.283v444.245h666.283v-444.245z" />
<glyph unicode="&#xe915;" glyph-name="calendar2" d="M937.643 796.331h-154.795v77.312h-77.312v-232.107h77.312v77.312h77.483v-619.179h-696.661v619.179h38.741v77.483h-116.053v-773.973h851.285zM318.464 873.643h-77.312v-232.107h77.312v77.312h348.331v77.483h-348.331zM395.947 564.053h77.483v-77.483h-77.483v77.483zM550.741 564.053h77.483v-77.483h-77.483v77.483zM705.536 564.053h77.483v-77.483h-77.483v77.483zM241.152 409.259h77.483v-77.483h-77.483v77.483zM395.947 409.259h77.483v-77.483h-77.483v77.483zM550.741 409.259h77.483v-77.483h-77.483v77.483zM705.536 409.259h77.483v-77.483h-77.483v77.483zM241.152 254.464h77.483v-77.483h-77.483v77.483zM395.947 254.464h77.483v-77.483h-77.483v77.483zM550.741 254.464h77.483v-77.483h-77.483v77.483zM705.536 254.464h77.483v-77.483h-77.483v77.483z" />
<glyph unicode="&#xe916;" glyph-name="people" d="M263.68 696.32c0-39.211-31.787-70.997-70.997-70.997s-70.997 31.787-70.997 70.997c0 39.211 31.787 70.997 70.997 70.997s70.997-31.787 70.997-70.997zM121.685 128.683h70.997v212.821h35.499v-212.821h70.997v390.315h70.997v70.997h-212.992c-39.253 0-70.997-31.744-70.997-70.997v-177.323h35.499v-212.992zM902.315 696.32c0-39.211-31.787-70.997-70.997-70.997s-70.997 31.787-70.997 70.997c0 39.211 31.787 70.997 70.997 70.997s70.997-31.787 70.997-70.997zM866.816 589.824h-212.992v-70.997h70.997v-390.315h70.997v212.992h35.499v-212.821h70.997v212.821h35.499v177.493c-0.171 39.083-31.915 70.827-70.997 70.827zM582.997 696.32c0-39.211-31.787-70.997-70.997-70.997s-70.997 31.787-70.997 70.997c0 39.211 31.787 70.997 70.997 70.997s70.997-31.787 70.997-70.997zM405.504 518.997v-141.824h35.499v-248.32h141.824v248.149h35.499v141.824c0 39.253-31.744 70.997-70.997 70.997h-70.997c-38.912 0-70.827-31.744-70.827-70.827z" />
<glyph unicode="&#xe917;" glyph-name="shield_money" d="M146.091 837.12v-530.261l365.909-284.501 365.909 284.672v530.091h-219.477v-73.216h-36.523v109.739h-219.648v-109.739h-36.523v73.216h-219.648zM475.477 690.859v109.739h73.216v-109.739h182.955v73.216h73.216v-421.205l-292.864-227.669-292.693 227.669v421.035h73.216v-73.216h182.955zM548.523 324.949h-73.216c-20.139 0-36.523 16.384-36.523 36.523h-73.216c0-60.587 49.152-109.739 109.739-109.739v-36.523h73.216v36.523c60.587 0 109.739 49.152 109.739 109.739s-49.152 109.739-109.739 109.739h-73.216c-20.139 0-36.523 16.384-36.523 36.523s16.384 36.523 36.523 36.523h73.216c20.139 0 36.523-16.384 36.523-36.523h73.216c0 60.587-49.152 109.739-109.739 109.739v36.523h-73.216v-36.523c-60.587 0-109.739-49.152-109.739-109.739s49.152-109.739 109.739-109.739h73.216c20.139 0 36.523-16.384 36.523-36.523s-16.213-36.523-36.523-36.523z" />
<glyph unicode="&#xe918;" glyph-name="time_check" d="M86.528 448.341c-0.341-235.008 189.952-425.643 424.96-425.984s425.643 189.952 425.984 424.96c0.171 83.968-24.576 166.059-71.168 236.032l-60.075-63.488c22.528-39.765 37.035-83.627 42.325-129.195h-80.384v-84.651h80.384c-19.627-154.795-141.483-276.651-296.277-296.277v84.651h-84.651v-84.651c-154.795 19.456-276.821 141.483-296.277 296.277h84.651v84.651h-84.651c18.432 155.307 140.971 277.845 296.277 296.277v-82.603h84.651v81.749c46.251-5.803 90.795-21.163 130.731-44.885l61.44 61.44c-68.779 46.080-149.675 70.827-232.448 71.168-234.837-0.341-425.301-190.635-425.472-425.472zM414.549 605.355l-59.563-59.733 157.013-157.013 410.624 410.965-59.733 59.733-350.891-350.891z" />
<glyph unicode="&#xe919;" glyph-name="world_settings" d="M833.707 597.333l48.981 81.92-139.435 139.435-81.92-48.981c-8.875 4.267-18.091 7.851-27.648 11.435l-23.040 92.672h-98.645c-235.179-0.171-425.643-190.635-425.643-425.813s190.464-425.643 425.643-425.643h98.645l23.040 92.672c9.557 3.584 18.773 7.168 27.648 11.435l81.92-48.981 139.435 139.435-48.981 81.92c3.925 8.875 7.851 18.091 11.435 27.648l92.672 23.040v197.12l-92.672 23.040c-3.584 9.557-7.168 20.139-11.435 27.648zM319.659 448c0.171 35.669 3.243 71.339 9.216 106.496h147.627v-212.821h-147.627c-5.973 34.987-9.045 70.656-9.216 106.325zM476.501 795.989v-170.667h-129.877c28.16 86.699 75.264 150.869 129.877 170.667zM476.501 270.677v-171.008c-54.613 19.797-101.888 84.139-129.877 171.008h129.877zM547.499 547.669c55.125-20.309 83.456-81.579 63.147-136.704-10.752-29.184-33.792-52.224-63.147-63.147v199.851zM323.925 748.203c-22.869-38.4-40.277-79.701-51.712-122.709h-67.072c29.013 49.835 69.803 91.989 118.784 122.709zM173.568 554.496h83.797c-11.435-70.485-11.435-142.336 0-212.821h-83.797c-21.845 69.12-21.845 143.531 0 212.821zM205.141 270.677h67.072c11.435-43.179 29.013-84.651 51.712-123.051-48.981 30.72-89.771 73.045-118.784 123.051zM866.816 404.651l-77.312-19.456-5.632-19.115c-5.632-18.091-12.8-35.669-21.675-52.565l-9.557-17.749 40.789-68.096-61.099-61.44-68.437 41.301-17.749-9.557c-16.725-8.875-34.133-16.043-52.224-21.675l-19.456-5.632-19.115-77.312h-7.851v180.907c96.085 19.456 158.037 113.152 138.581 209.067-14.165 69.803-68.779 124.416-138.581 138.581v180.907h7.851l19.115-77.312 19.456-5.632c18.091-5.973 35.669-13.824 52.224-23.381l17.749-9.557 68.437 40.789 61.099-61.099-40.96-66.731 9.557-17.749c8.875-16.555 16.213-34.133 21.675-52.224l5.632-19.456 77.312-19.115 0.171-86.699z" />
<glyph unicode="&#xe91a;" glyph-name="reply" d="M426 554.667q208-30 321-159t149-311q-154 218-470 218v-174l-298 298 298 298v-170z" />
<glyph unicode="&#xe91b;" glyph-name="paypal-svgrepo-com" d="M948.695 781.407c41.592-76.275 27.867-166.22 11.486-219.376-88.641-289.544-488.607-273.795-546.47-273.795-57.795 0-71.254-53.893-71.254-53.893l-43.213-188.526c-11.779-66.175-71.793-62.877-71.793-62.877s-78.009 0-130.188 0c-3.273 0-6.328 0.225-9.134 0.631-0.645-12.117 1.079-47.541 44.401-47.541 52.139 0 130.147 0 130.147 0s60.013-3.366 71.834 62.806l43.165 188.519c0 0 13.507 53.897 71.301 53.897 57.767 0 457.829-15.746 546.514 273.808 19.787 64.717 35.874 183.635-46.797 266.347zM259.046 86.911l43.206 188.533c0 0 13.421 53.801 71.301 53.801 57.747 0 457.781-15.664 546.429 273.819 32.437 105.838 54.958 356.92-348.956 356.92h-291.749c0 0-60.641 2.816-75.606-61.659l-190.628-822.715c0 0-8.185-51.555 43.974-51.555 52.207 0 130.233 0 130.233 0s60.013-3.393 71.796 62.857zM369 565.482l38.741 167.179c0 0 12.339 45.462 52.207 52.193 39.827 6.755 107.667-1.201 125.12-4.495 113.299-21.279 89.201-128.478 89.201-128.478-22.433-165.476-280.007-142.514-280.007-142.514-40.383 14.602-25.262 56.115-25.262 56.115z" />
<glyph unicode="&#xe91c;" glyph-name="bank" d="M511.488 599.723c-8.875 0-16.213 7.168-16.213 16.213 0 4.608-3.755 8.363-8.363 8.363s-8.363-3.755-8.363-8.363c0-15.189 10.411-27.989 24.576-31.744v-6.315c0-4.608 3.755-8.363 8.363-8.363s8.363 3.755 8.363 8.363v6.315c14.165 3.755 24.576 16.384 24.576 31.744 0 18.091-14.848 32.939-32.939 32.939-8.875 0-16.213 7.168-16.213 16.213 0 8.875 7.168 16.213 16.213 16.213 8.533 0 15.531-6.656 16.213-15.019 0.341-4.608 4.437-8.021 8.875-7.851 4.608 0.341 8.192 4.267 7.851 8.875-1.024 14.336-11.093 25.941-24.576 29.525v6.315c0 4.608-3.755 8.363-8.363 8.363s-8.363-3.755-8.363-8.363v-6.315c-13.995-3.755-24.576-16.555-24.576-31.744 0-18.091 14.848-32.939 32.939-32.939 8.875 0 16.213-7.168 16.213-16.213s-7.339-16.213-16.213-16.213zM862.72 508.587c0 0.512-0.171 1.195-0.341 1.707s-0.171 1.024-0.341 1.365c-0.171 0.512-0.512 0.853-0.853 1.195-0.341 0.512-0.683 1.024-1.024 1.365-0.171 0.171-0.171 0.171-0.171 0.341l-342.699 283.648c-3.072 2.56-7.68 2.56-10.752 0l-342.187-283.477c-0.171-0.171-0.171-0.171-0.171-0.341-0.512-0.341-0.683-0.853-1.024-1.365-0.341-0.341-0.683-0.853-0.853-1.195-0.171-0.512-0.341-1.024-0.341-1.365-0.171-0.512-0.341-1.195-0.341-1.707 0-0.171 0-0.171 0-0.341v-66.56c0-4.608 3.755-8.363 8.363-8.363h85.504v-258.048h-85.845c-4.608 0-8.363-3.755-8.363-8.363v-55.467c0-1.365 0.341-2.56 0.853-3.584-0.512-1.024-0.853-2.219-0.853-3.584 0-4.608 3.755-8.363 8.363-8.363h678.571c4.608 0 8.363 3.755 8.363 8.363v62.635c0 4.608-3.755 8.363-8.363 8.363h-79.872v257.877h86.016c4.608 0 8.363 3.755 8.363 8.363v66.56c0 0.171 0 0.171 0 0.341zM178.005 450.048v49.835h667.989v-49.835h-667.989zM839.851 158.549v-45.909h-661.845v45.909h661.845zM482.816 175.275v258.048h62.123v-258.048h-62.123zM512 780.971l319.147-264.363h-638.293l319.147 264.363zM271.872 433.323h194.048v-258.048h-115.029v228.352c0 4.608-3.755 8.363-8.363 8.363s-8.363-3.755-8.363-8.363v-228.352h-62.123v258.048zM751.616 175.275h-189.952v258.048h110.933v-227.499c0-4.608 3.755-8.363 8.363-8.363s8.363 3.755 8.363 8.363v227.499h62.123v-258.048z" />
<glyph unicode="&#xe91d;" glyph-name="accounting" d="M862.72 432.128c0 0.512-0.171 1.024-0.341 1.536s-0.171 0.853-0.512 1.365c-0.171 0.341-0.512 0.853-0.853 1.195s-0.683 0.853-1.024 1.195c-0.171 0.171-0.171 0.171-0.341 0.341l-30.891 23.893c-2.56 2.048-6.315 2.219-9.045 0.341l-31.061-21.163-33.792 21.163c0 0 0 0 0 0h-0.171c-0.171 0.171-0.512 0.171-0.853 0.341-0.683 0.341-1.195 0.683-2.048 0.683-0.512 0-1.024 0-1.365 0-0.512 0-1.024 0-1.536 0-0.683-0.171-1.365-0.512-1.877-0.853-0.171-0.171-0.512-0.171-0.683-0.341v0c0 0 0 0 0 0l-5.973-4.096-29.184-19.797c-3.413-2.389-4.437-7.168-2.048-10.581 1.536-2.219 3.925-3.413 6.315-3.413 1.536 0 2.901 0.512 4.267 1.365l31.232 21.163 33.963-21.333c2.56-1.707 5.803-1.536 8.363 0.171l30.549 20.821 23.552-18.261v-152.747c0-43.861-35.669-79.701-79.701-79.701-43.861 0-79.701 35.669-79.701 79.701v407.723c0 47.957-35.84 87.723-82.261 94.037-1.024 0.512-2.219 1.024-3.584 1.024h-297.813c-52.395 0-94.891-42.667-94.891-94.891v-27.819h-13.995c-18.773 0-33.963-15.189-33.963-33.963v-468.821c0-18.773 15.189-33.963 33.963-33.963h341.504c18.773 0 33.963 15.189 33.963 33.963v468.651c0 18.773-15.189 33.963-33.963 33.963h-13.995v27.819c0 42.325 33.28 76.971 75.093 79.36 41.813-2.389 75.093-37.035 75.093-79.36v-407.723c0-33.28 17.408-62.635 43.52-79.701h-114.517c-4.267 0-7.68-3.413-7.68-7.68s3.413-7.68 7.68-7.68h166.059c52.395 0 94.891 42.667 94.891 94.891v156.501c-0.341 0.341-0.341 0.512-0.341 0.683zM507.563 682.837v-81.749c0-4.267 3.413-7.68 7.68-7.68s7.68 3.413 7.68 7.68v38.571h13.995c10.411 0 18.773-8.363 18.773-18.773v-468.821c0-10.24-8.363-18.773-18.773-18.773h-341.675c-10.24 0-18.773 8.363-18.773 18.773v468.992c0 10.24 8.363 18.773 18.773 18.773h13.995v-38.571c0-4.267 3.413-7.68 7.68-7.68h248.832c4.267 0 7.68 3.413 7.68 7.68s-3.413 7.68-7.68 7.68h-241.152v74.069c0 43.861 35.669 79.701 79.701 79.701h246.784c-26.283-17.237-43.52-46.421-43.52-79.872zM209.237 558.251v-85.333c0-4.267 3.413-7.68 7.68-7.68h298.155c4.267 0 7.68 3.413 7.68 7.68v85.333c0 4.267-3.413 7.68-7.68 7.68h-298.155c-4.096 0-7.68-3.413-7.68-7.68zM224.597 550.571h282.965v-70.144h-282.965v70.144zM290.304 416.597h-73.387c-4.267 0-7.68-3.413-7.68-7.68s3.413-7.68 7.68-7.68h73.387c4.267 0 7.68 3.413 7.68 7.68s-3.413 7.68-7.68 7.68zM402.773 416.597h-73.387c-4.267 0-7.68-3.413-7.68-7.68s3.413-7.68 7.68-7.68h73.387c4.267 0 7.68 3.413 7.68 7.68s-3.413 7.68-7.68 7.68zM515.243 416.597h-73.387c-4.267 0-7.68-3.413-7.68-7.68s3.413-7.68 7.68-7.68h73.387c4.267 0 7.68 3.413 7.68 7.68-0.171 4.267-3.584 7.68-7.68 7.68zM290.304 334.507h-73.387c-4.267 0-7.68-3.413-7.68-7.68s3.413-7.68 7.68-7.68h73.387c4.267 0 7.68 3.413 7.68 7.68s-3.413 7.68-7.68 7.68zM402.773 334.507h-73.387c-4.267 0-7.68-3.413-7.68-7.68s3.413-7.68 7.68-7.68h73.387c4.267 0 7.68 3.413 7.68 7.68s-3.413 7.68-7.68 7.68zM515.243 334.507h-73.387c-4.267 0-7.68-3.413-7.68-7.68s3.413-7.68 7.68-7.68h73.387c4.267 0 7.68 3.413 7.68 7.68s-3.584 7.68-7.68 7.68zM290.304 252.245h-73.387c-4.267 0-7.68-3.413-7.68-7.68s3.413-7.68 7.68-7.68h73.387c4.267 0 7.68 3.413 7.68 7.68s-3.413 7.68-7.68 7.68zM402.773 252.245h-73.387c-4.267 0-7.68-3.413-7.68-7.68s3.413-7.68 7.68-7.68h73.387c4.267 0 7.68 3.413 7.68 7.68s-3.413 7.68-7.68 7.68zM515.243 252.245h-73.387c-4.267 0-7.68-3.413-7.68-7.68s3.413-7.68 7.68-7.68h73.387c4.267 0 7.68 3.413 7.68 7.68-0.171 4.267-3.584 7.68-7.68 7.68z" />
<glyph unicode="&#xe91e;" glyph-name="bank-check" d="M862.72 645.803c-0.171 1.877-1.195 3.755-2.731 4.949l-96.768 75.776c-3.243 2.56-7.851 1.877-10.411-1.195l-274.091-349.184c-0.853-1.024-1.365-2.389-1.536-3.584l-14.677-118.955c-0.341-2.56 0.683-5.12 2.731-6.656 1.365-1.024 2.901-1.536 4.608-1.536 0.853 0 1.707 0.171 2.731 0.512l111.445 43.008c1.195 0.512 2.389 1.195 3.072 2.389l153.259 195.243v-303.957h-564.395l0.512 337.408 347.989-1.536c0 0 0 0 0 0 4.096 0 7.339 3.243 7.339 7.339s-3.243 7.339-7.339 7.339l-355.328 1.536c-2.219-0.341-3.755-0.683-5.291-2.219-1.365-1.365-2.219-3.243-2.219-5.291l-0.512-351.915c0-3.584 2.56-6.315 5.973-6.997 0.853-0.341 1.877-0.683 2.901-0.683h577.707c4.096 0 7.339 3.243 7.339 7.339v330.24l106.155 135.168c1.195 1.536 1.707 3.584 1.536 5.461zM587.776 315.904l-56.491 44.203c-3.243 2.56-7.851 1.877-10.411-1.195-2.56-3.243-1.877-7.851 1.195-10.411l56.491-44.203-1.877-2.389-98.133-37.888 12.971 104.619 222.208 283.136 61.099-47.957c1.365-1.024 2.901-1.536 4.608-1.536 2.219 0 4.267 1.024 5.803 2.901 2.56 3.243 1.877 7.851-1.195 10.411l-61.099 47.787 37.035 47.104 85.163-66.731-257.365-327.851zM466.261 443.051c0 4.096-3.243 7.339-7.339 7.339h-206.507c-4.096 0-7.339-3.243-7.339-7.339s3.243-7.339 7.339-7.339h206.507c3.925 0 7.339 3.243 7.339 7.339zM395.605 351.403c0 4.096-3.243 7.339-7.339 7.339h-136.021c-4.096 0-7.339-3.243-7.339-7.339s3.243-7.339 7.339-7.339h136.021c4.096 0 7.339 3.243 7.339 7.339zM252.245 267.264c-4.096 0-7.339-3.243-7.339-7.339s3.243-7.339 7.339-7.339h81.92c4.096 0 7.339 3.243 7.339 7.339s-3.243 7.339-7.339 7.339h-81.92z" />
<glyph unicode="&#xe91f;" glyph-name="cash" d="M387.072 268.629c1.024-0.853 2.389-1.195 3.755-1.195 0.853 0 1.707 0.171 2.56 0.512l138.752 59.733c3.243 1.365 4.779 5.291 3.413 8.533s-5.291 4.779-8.533 3.413l-135.339-58.368-218.795 151.552c-2.901 2.048-6.997 1.365-9.045-1.707-2.048-2.901-1.365-6.997 1.707-9.045l221.525-153.429zM852.48 474.453l-131.584-55.125c-3.243-1.365-4.949-5.12-3.413-8.533 1.024-2.56 3.413-3.925 5.973-3.925 0.853 0 1.707 0.171 2.56 0.512l131.584 55.125c3.243 1.365 4.949 5.12 3.413 8.533-1.365 3.243-5.291 4.779-8.533 3.413zM851.285 425.643l-153.771-64.341 2.219 83.285 0.683 0.341c0.341 0.171 0.512 0.171 0.853 0.341l157.696 66.048c2.219 0.853 3.755 2.901 3.925 5.291s-0.853 4.608-2.731 5.973l-221.696 153.6c-1.877 1.195-4.096 1.536-6.144 0.683l-464.213-194.389c-0.171 0-0.341-0.171-0.512-0.341-0.341-0.171-0.683-0.512-1.024-0.683-0.341-0.341-0.683-0.512-1.024-0.853-0.171-0.171-0.341-0.171-0.341-0.341-0.171-0.171-0.171-0.341-0.341-0.683s-0.341-0.853-0.512-1.195c-0.171-0.341-0.171-0.853-0.171-1.195s0-0.853 0-1.195c0-0.512 0.171-0.853 0.341-1.365 0-0.171 0-0.512 0.171-0.683 0-0.171 0.171-0.341 0.341-0.512 0.171-0.341 0.512-0.683 0.683-1.024 0.341-0.341 0.512-0.683 0.853-1.024 0.171-0.171 0.171-0.341 0.341-0.341l221.696-153.6c0 0 0 0 0 0 0.341-0.341 0.853-0.512 1.195-0.683 0.171 0 0.341-0.171 0.512-0.171 0.512-0.171 1.024-0.171 1.365-0.171 0.171 0 0.341 0 0.341 0v0c0 0 0 0 0 0 0.853 0 1.707 0.171 2.56 0.512l158.379 66.389-2.219-83.285-160.427-67.243-218.795 151.723c-2.901 2.048-6.997 1.365-9.045-1.707-2.048-2.901-1.365-6.997 1.707-9.045l221.696-153.6c1.195-0.853 2.389-1.195 3.755-1.195 0.853 0 1.707 0.171 2.56 0.512l464.213 194.389c3.243 1.365 4.949 5.12 3.413 8.533-1.536 3.072-5.291 4.608-8.533 3.243zM633.685 663.381l209.067-144.896-144.213-60.416-209.067 144.896 144.213 60.416zM392.704 330.069l-209.067 144.896 155.819 65.195 209.067-144.896-155.819-65.195zM566.101 395.264c0 0.171-0.171 0.341-0.171 0.683 0 0.512-0.171 0.853-0.171 1.365-0.171 0.341-0.171 0.853-0.512 1.195-0.171 0.341-0.341 0.683-0.683 1.024s-0.512 0.683-0.853 1.024c-0.171 0.171-0.341 0.341-0.512 0.512l-209.749 145.408 121.515 50.859 211.456-146.603-2.389-94.891-120.32-50.347 2.389 89.771zM391.168 437.76c-1.877 4.779-7.339 7.168-12.117 5.291s-7.168-7.339-5.291-12.117c1.877-4.779 7.339-7.168 12.117-5.291s7.168 7.339 5.291 12.117zM674.133 551.083c4.779 1.877 7.168 7.339 5.291 12.117s-7.339 7.168-12.117 5.291c-4.779-1.877-7.168-7.339-5.291-12.117 1.877-4.949 7.339-7.168 12.117-5.291z" />
<glyph unicode="&#xe920;" glyph-name="credit-card" d="M813.909 620.544h-645.12c-4.096 0-7.509-3.413-7.509-7.509v-376.832c0-4.096 3.413-7.509 7.509-7.509h645.12c4.096 0 7.509 3.413 7.509 7.509v376.832c0 4.096-3.243 7.509-7.509 7.509zM806.4 243.712h-630.101v361.813h630.101v-361.813zM717.141 378.197c-10.24 0-19.627-3.243-27.477-8.533-8.021 5.461-17.408 8.533-27.307 8.533-26.795 0-48.811-21.845-48.811-48.811s21.845-48.811 48.811-48.811c9.899 0 19.285 3.072 27.307 8.533 7.851-5.461 17.237-8.533 27.477-8.533 26.795 0 48.811 21.845 48.811 48.811s-22.016 48.811-48.811 48.811zM628.736 329.557c0 18.603 15.019 33.621 33.621 33.621 5.803 0 11.264-1.536 16.213-4.267-6.315-8.192-10.069-18.261-10.069-29.355s3.925-21.163 10.069-29.355c-4.949-2.731-10.411-4.267-16.213-4.267-18.603 0-33.621 15.019-33.621 33.621zM717.141 295.936c-18.603 0-33.621 15.019-33.621 33.621s15.019 33.621 33.621 33.621c18.603 0 33.621-15.019 33.621-33.621s-15.019-33.621-33.621-33.621zM224.427 472.064h117.589c4.096 0 7.509 3.413 7.509 7.509v80.555c0 4.096-3.413 7.509-7.509 7.509h-117.589c-4.096 0-7.509-3.413-7.509-7.509v-80.555c0-4.096 3.243-7.509 7.509-7.509zM231.936 552.619h102.571v-65.365h-102.571v65.365zM224.427 417.109h533.845c4.096 0 7.509 3.413 7.509 7.509s-3.413 7.509-7.509 7.509h-533.845c-4.096 0-7.509-3.413-7.509-7.509s3.243-7.509 7.509-7.509zM855.211 667.307h-628.736c-4.096 0-7.509-3.413-7.509-7.509s3.413-7.509 7.509-7.509h621.227v-359.765c0-4.096 3.413-7.509 7.509-7.509s7.509 3.413 7.509 7.509v367.275c0 4.096-3.413 7.509-7.509 7.509z" />
<glyph unicode="&#xe921;" glyph-name="check-circle" d="M483.499 298.667c-7.509 0-14.848 3.072-20.139 8.363l-99.499 99.669c-11.093 11.093-11.093 29.184 0 40.277s29.184 11.093 40.277 0l77.141-77.141 179.2 224.085c9.728 12.288 27.648 14.336 39.936 4.437 12.288-9.728 14.336-27.648 4.437-39.936l-199.168-249.173c-5.12-6.315-12.629-10.24-20.651-10.581-0.512 0-1.024 0-1.536 0zM512 35.499c-227.499 0-412.501 185.003-412.501 412.501s185.003 412.501 412.501 412.501 412.501-185.003 412.501-412.501-185.003-412.501-412.501-412.501zM512 803.499c-196.096 0-355.499-159.403-355.499-355.499s159.403-355.499 355.499-355.499 355.499 159.573 355.499 355.499-159.403 355.499-355.499 355.499z" />
<glyph unicode="&#xe922;" glyph-name="info-squared" d="M853.333 35.499h-682.667c-39.253 0-71.168 31.915-71.168 71.168v682.667c0 39.253 31.915 71.168 71.168 71.168h682.667c39.253 0 71.168-31.915 71.168-71.168v-682.667c0-39.253-31.915-71.168-71.168-71.168zM170.667 803.499c-7.851 0-14.165-6.315-14.165-14.165v-682.667c0-7.851 6.315-14.165 14.165-14.165h682.667c7.851 0 14.165 6.315 14.165 14.165v682.667c0 7.851-6.315 14.165-14.165 14.165h-682.667zM504.832 561.835c-19.627 0-35.499 15.872-35.499 35.499s15.872 35.499 35.499 35.499 35.499-15.872 35.499-35.499-15.872-35.499-35.499-35.499zM568.832 291.499h-28.501v199.168c0 15.701-12.8 28.501-28.501 28.501h-28.501c-15.701 0-28.501-12.8-28.501-28.501s12.8-28.501 28.501-28.501v-170.667h-28.501c-15.701 0-28.501-12.8-28.501-28.501s12.8-28.501 28.501-28.501h113.835c15.701 0 28.501 12.8 28.501 28.501s-12.629 28.501-28.331 28.501z" />
<glyph unicode="&#xe923;" glyph-name="warning-triangle" d="M504.832 789.333l384-682.667h-768l384 682.667zM504.832 846.165v0c-20.48 0-39.424-11.093-49.664-29.013l-384-682.667c-9.899-17.579-9.728-39.083 0.512-56.661 10.24-17.408 28.843-28.16 49.152-28.16h768c20.139 0 38.912 10.752 49.152 28.16s10.411 39.083 0.512 56.661l-384 682.667c-10.069 17.92-29.013 29.013-49.664 29.013v0zM504.832 276.48c23.552 0 42.667-19.115 42.667-42.667s-19.115-42.667-42.667-42.667-42.667 19.115-42.667 42.667 19.115 42.667 42.667 42.667zM497.835 334.165c-15.701 0-28.501 12.8-28.501 28.501v227.499c0 15.701 12.8 28.501 28.501 28.501s28.501-12.8 28.501-28.501v-227.499c-0.171-15.701-12.8-28.501-28.501-28.501z" />
<glyph unicode="&#xe924;" glyph-name="yith" horiz-adv-x="1025" d="M912.045 578.581c-47.452-32.802-108.205-67.153-182.659-103.005 37.852 125.106 58.903 241.862 63.103 350.217 3.15 87.254-35.802 131.956-116.756 134.057-97.805 3.15-161.958-51.503-192.459-164.058 17.101 7.35 34.702 11.051 52.903 11.051 14.901 0 27.201-6.050 36.802-18.151s13.851-26.051 12.801-41.802c-1-41.002-21.951-84.954-62.753-131.706-40.802-46.852-77.104-70.203-108.905-70.203-22.251 0-32.852 18.901-31.802 56.753 1.050 20.001 7.9 60.503 20.501 121.506 11.551 57.803 17.351 96.705 17.351 116.706 0 34.702-8.95 62.853-26.801 84.404-17.901 21.551-43.652 30.752-77.304 27.601-23.151-2.1-57.303-23.151-102.555-63.053-33.702-30.651-67.353-61.103-101.005-91.604l36.302-42.602c29.401 22.101 47.302 33.152 53.603 33.152 20.001 0 29.451-13.701 28.451-41.002 0-2.15-9.5-35.252-28.401-99.405s-28.901-112.005-30.001-143.557c-2.1-43.152 5.8-76.254 23.751-99.355 22.151-28.401 59.103-40.502 110.905-36.302 61.203 4.2 122.456 26.851 183.709 67.803 25.351 16.851 49.602 36.302 72.854 58.403-8.4-42.102-18.401-77.854-30.001-107.305-113.556-51.503-195.56-95.655-246.062-132.506-71.553-51.503-109.905-106.705-115.156-165.608-9.5-102.005 42.052-153.007 154.608-153.007 75.704 0 148.807 46.252 219.261 138.807 59.953 78.854 112.005 184.059 156.158 315.465 76.454 37.952 141.057 75.104 193.959 111.505-1.7-12.251 19.551 92.805 15.601 76.804zM369.668 155.211c-16.851 0-24.751 7.4-23.701 22.101 2.1 27.351 49.452 63.653 142.007 108.855-48.402-87.254-87.854-130.956-118.306-130.956z" />
</font>
</defs>
</svg>
